<?xml version="1.0" standalone="no"?>
<!DOCTYPE svg PUBLIC "-//W3C//DTD SVG 1.1//EN" "http://www.w3.org/Graphics/SVG/1.1/DTD/svg11.dtd" >
<svg xmlns="http://www.w3.org/2000/svg" xmlns:xlink="http://www.w3.org/1999/xlink" version="1.1">
<metadata>
Created by FontForge 20170731 at Wed Mar 29 15:03:00 2017
 By Aleksey,,,
Copyright 2011 Google Inc. All Rights Reserved.
</metadata>
<defs>
<font id="Roboto-Regular" horiz-adv-x="1336" >
  <font-face 
    font-family="Roboto"
    font-weight="400"
    font-stretch="normal"
    units-per-em="2048"
    panose-1="2 0 0 0 0 0 0 0 0 0"
    ascent="1536"
    descent="-512"
    bbox="-712 -507 1565 2112"
    underline-thickness="100"
    underline-position="-300"
    unicode-range="U+0102-20AB"
  />
<missing-glyph horiz-adv-x="908" 
d="M808 0h-708v1456h708v-1456zM754 84v1287l-274 -643zM154 1359v-1263l268 632zM194 54h515l-258 606zM451 796l258 606h-515z" />
    <glyph glyph-name=".notdef" horiz-adv-x="908" 
d="M808 0h-708v1456h708v-1456zM754 84v1287l-274 -643zM154 1359v-1263l268 632zM194 54h515l-258 606zM451 796l258 606h-515z" />
    <glyph glyph-name="glyph1" horiz-adv-x="0" 
 />
    <glyph glyph-name="glyph2" horiz-adv-x="0" 
 />
    <glyph glyph-name="Abreve" unicode="&#x102;" 
d="M973 380h-610l-137 -380h-198l556 1456h168l557 -1456h-197zM421 538h495l-248 681zM972 1806q0 -121 -82.5 -194.5t-216.5 -73.5t-217 74t-83 194h151q0 -70 38 -109.5t111 -39.5q70 0 109.5 39t39.5 110h150z" />
    <glyph glyph-name="abreve" unicode="&#x103;" horiz-adv-x="1114" 
d="M808 0q-16 32 -26 114q-129 -134 -308 -134q-160 0 -262.5 90.5t-102.5 229.5q0 169 128.5 262.5t361.5 93.5h180v85q0 97 -58 154.5t-171 57.5q-99 0 -166 -50t-67 -121h-186q0 81 57.5 156.5t156 119.5t216.5 44q187 0 293 -93.5t110 -257.5v-498q0 -149 38 -237v-16
h-194zM501 141q87 0 165 45t113 117v222h-145q-340 0 -340 -199q0 -87 58 -136t149 -49zM881 1496q0 -121 -82.5 -194.5t-216.5 -73.5t-217 74t-83 194h151q0 -70 38 -109.5t111 -39.5q70 0 109.5 39t39.5 110h150z" />
    <glyph glyph-name="uni1EA0" unicode="&#x1ea0;" 
d="M973 380h-610l-137 -380h-198l556 1456h168l557 -1456h-197zM421 538h495l-248 681zM570 -245q0 45 27.5 76t81.5 31t82 -31t28 -76t-28 -75t-82 -30t-81.5 30t-27.5 75z" />
    <glyph glyph-name="uni1EA1" unicode="&#x1ea1;" horiz-adv-x="1114" 
d="M808 0q-16 32 -26 114q-129 -134 -308 -134q-160 0 -262.5 90.5t-102.5 229.5q0 169 128.5 262.5t361.5 93.5h180v85q0 97 -58 154.5t-171 57.5q-99 0 -166 -50t-67 -121h-186q0 81 57.5 156.5t156 119.5t216.5 44q187 0 293 -93.5t110 -257.5v-498q0 -149 38 -237v-16
h-194zM501 141q87 0 165 45t113 117v222h-145q-340 0 -340 -199q0 -87 58 -136t149 -49zM386 -245q0 45 27.5 76t81.5 31t82 -31t28 -76t-28 -75t-82 -30t-81.5 30t-27.5 75z" />
    <glyph glyph-name="uni1EA2" unicode="&#x1ea2;" 
d="M973 380h-610l-137 -380h-198l556 1456h168l557 -1456h-197zM421 538h495l-248 681zM610 1567l-1 153q75 5 110 20t35 54t-45.5 58.5t-120.5 19.5l7 106q149 0 226 -51.5t77 -136.5q0 -61 -39 -101t-116 -51l-1 -71h-132z" />
    <glyph glyph-name="uni1EA3" unicode="&#x1ea3;" horiz-adv-x="1114" 
d="M808 0q-16 32 -26 114q-129 -134 -308 -134q-160 0 -262.5 90.5t-102.5 229.5q0 169 128.5 262.5t361.5 93.5h180v85q0 97 -58 154.5t-171 57.5q-99 0 -166 -50t-67 -121h-186q0 81 57.5 156.5t156 119.5t216.5 44q187 0 293 -93.5t110 -257.5v-498q0 -149 38 -237v-16
h-194zM501 141q87 0 165 45t113 117v222h-145q-340 0 -340 -199q0 -87 58 -136t149 -49zM519 1257l-1 153q75 5 110 20t35 54t-45.5 58.5t-120.5 19.5l7 106q149 0 226 -51.5t77 -136.5q0 -61 -39 -101t-116 -51l-1 -71h-132z" />
    <glyph glyph-name="uni1EA4" unicode="&#x1ea4;" 
d="M973 380h-610l-137 -380h-198l556 1456h168l557 -1456h-197zM421 538h495l-248 681zM597 1814h152l290 -263h-197l-169 159l-170 -159h-198zM1107 1987h200l-201 -259h-141z" />
    <glyph glyph-name="uni1EA5" unicode="&#x1ea5;" horiz-adv-x="1114" 
d="M808 0q-16 32 -26 114q-129 -134 -308 -134q-160 0 -262.5 90.5t-102.5 229.5q0 169 128.5 262.5t361.5 93.5h180v85q0 97 -58 154.5t-171 57.5q-99 0 -166 -50t-67 -121h-186q0 81 57.5 156.5t156 119.5t216.5 44q187 0 293 -93.5t110 -257.5v-498q0 -149 38 -237v-16
h-194zM501 141q87 0 165 45t113 117v222h-145q-340 0 -340 -199q0 -87 58 -136t149 -49zM506 1505h152l290 -263h-197l-169 159l-170 -159h-198zM1016 1678h200l-201 -259h-141z" />
    <glyph glyph-name="uni1EA6" unicode="&#x1ea6;" 
d="M973 380h-610l-137 -380h-198l556 1456h168l557 -1456h-197zM421 538h495l-248 681zM1037 1548h-197l-170 158l-170 -158h-196l290 262h152zM377 1725h-140l-200 258h199z" />
    <glyph glyph-name="uni1EA7" unicode="&#x1ea7;" horiz-adv-x="1114" 
d="M808 0q-16 32 -26 114q-129 -134 -308 -134q-160 0 -262.5 90.5t-102.5 229.5q0 169 128.5 262.5t361.5 93.5h180v85q0 97 -58 154.5t-171 57.5q-99 0 -166 -50t-67 -121h-186q0 81 57.5 156.5t156 119.5t216.5 44q187 0 293 -93.5t110 -257.5v-498q0 -149 38 -237v-16
h-194zM501 141q87 0 165 45t113 117v222h-145q-340 0 -340 -199q0 -87 58 -136t149 -49zM946 1238h-197l-170 158l-170 -158h-196l290 262h152zM286 1415h-140l-200 258h199z" />
    <glyph glyph-name="uni1EA8" unicode="&#x1ea8;" 
d="M973 380h-610l-137 -380h-198l556 1456h168l557 -1456h-197zM421 538h495l-248 681zM1038 1535h-170l-197 186l-197 -186h-169l272 262h188zM955 1673l-1 131q65 4 94.5 17t29.5 46q0 67 -141 67l5 92q128 0 195 -44t67 -117q0 -59 -37 -92t-97 -40l-1 -60h-114z" />
    <glyph glyph-name="uni1EA9" unicode="&#x1ea9;" horiz-adv-x="1114" 
d="M808 0q-16 32 -26 114q-129 -134 -308 -134q-160 0 -262.5 90.5t-102.5 229.5q0 169 128.5 262.5t361.5 93.5h180v85q0 97 -58 154.5t-171 57.5q-99 0 -166 -50t-67 -121h-186q0 81 57.5 156.5t156 119.5t216.5 44q187 0 293 -93.5t110 -257.5v-498q0 -149 38 -237v-16
h-194zM501 141q87 0 165 45t113 117v222h-145q-340 0 -340 -199q0 -87 58 -136t149 -49zM947 1226h-170l-197 186l-197 -186h-169l272 262h188zM864 1364l-1 131q65 4 94.5 17t29.5 46q0 67 -141 67l5 92q128 0 195 -44t67 -117q0 -59 -37 -92t-97 -40l-1 -60h-114z" />
    <glyph glyph-name="uni1EAA" unicode="&#x1eaa;" 
d="M973 380h-610l-137 -380h-198l556 1456h168l557 -1456h-197zM421 538h495l-248 681zM1037 1514h-170l-197 158l-197 -158h-169l301 244h131zM931 1987q0 -62 -48 -109t-113 -47q-54 0 -109 35.5t-95 35.5q-29 0 -56 -23t-27 -52l-77 19q0 63 48 112t112 49q42 0 104 -35
t100 -35q31 0 57 22.5t26 50.5z" />
    <glyph glyph-name="uni1EAB" unicode="&#x1eab;" horiz-adv-x="1114" 
d="M808 0q-16 32 -26 114q-129 -134 -308 -134q-160 0 -262.5 90.5t-102.5 229.5q0 169 128.5 262.5t361.5 93.5h180v85q0 97 -58 154.5t-171 57.5q-99 0 -166 -50t-67 -121h-186q0 81 57.5 156.5t156 119.5t216.5 44q187 0 293 -93.5t110 -257.5v-498q0 -149 38 -237v-16
h-194zM501 141q87 0 165 45t113 117v222h-145q-340 0 -340 -199q0 -87 58 -136t149 -49zM946 1205h-170l-197 158l-197 -158h-169l301 244h131zM840 1678q0 -62 -48 -109t-113 -47q-54 0 -109 35.5t-95 35.5q-29 0 -56 -23t-27 -52l-77 19q0 63 48 112t112 49q42 0 104 -35
t100 -35q31 0 57 22.5t26 50.5z" />
    <glyph glyph-name="uni1EAC" unicode="&#x1eac;" 
d="M973 380h-610l-137 -380h-198l556 1456h168l557 -1456h-197zM421 538h495l-248 681zM975 1572v-10h-153l-150 170l-149 -170h-153v12l246 272h112zM570 -245q0 45 27.5 76t81.5 31t82 -31t28 -76t-28 -75t-82 -30t-81.5 30t-27.5 75z" />
    <glyph glyph-name="uni1EAD" unicode="&#x1ead;" horiz-adv-x="1114" 
d="M808 0q-16 32 -26 114q-129 -134 -308 -134q-160 0 -262.5 90.5t-102.5 229.5q0 169 128.5 262.5t361.5 93.5h180v85q0 97 -58 154.5t-171 57.5q-99 0 -166 -50t-67 -121h-186q0 81 57.5 156.5t156 119.5t216.5 44q187 0 293 -93.5t110 -257.5v-498q0 -149 38 -237v-16
h-194zM501 141q87 0 165 45t113 117v222h-145q-340 0 -340 -199q0 -87 58 -136t149 -49zM884 1262v-10h-153l-150 170l-149 -170h-153v12l246 272h112zM386 -245q0 45 27.5 76t81.5 31t82 -31t28 -76t-28 -75t-82 -30t-81.5 30t-27.5 75z" />
    <glyph glyph-name="uni1EAE" unicode="&#x1eae;" 
d="M973 380h-610l-137 -380h-198l556 1456h168l557 -1456h-197zM421 538h495l-248 681zM970 1757q0 -95 -84 -152t-219 -57q-136 0 -220 57t-84 152h152q0 -55 39.5 -85.5t112.5 -30.5q71 0 110.5 31.5t39.5 84.5h153zM721 1975h153l-164 -198h-102z" />
    <glyph glyph-name="uni1EAF" unicode="&#x1eaf;" horiz-adv-x="1114" 
d="M808 0q-16 32 -26 114q-129 -134 -308 -134q-160 0 -262.5 90.5t-102.5 229.5q0 169 128.5 262.5t361.5 93.5h180v85q0 97 -58 154.5t-171 57.5q-99 0 -166 -50t-67 -121h-186q0 81 57.5 156.5t156 119.5t216.5 44q187 0 293 -93.5t110 -257.5v-498q0 -149 38 -237v-16
h-194zM501 141q87 0 165 45t113 117v222h-145q-340 0 -340 -199q0 -87 58 -136t149 -49zM879 1448q0 -95 -84 -152t-219 -57q-136 0 -220 57t-84 152h152q0 -55 39.5 -85.5t112.5 -30.5q71 0 110.5 31.5t39.5 84.5h153zM630 1666h153l-164 -198h-102z" />
    <glyph glyph-name="uni1EB0" unicode="&#x1eb0;" 
d="M973 380h-610l-137 -380h-198l556 1456h168l557 -1456h-197zM421 538h495l-248 681zM970 1757q0 -95 -84 -152t-219 -57q-136 0 -220 57t-84 152h152q0 -55 39.5 -85.5t112.5 -30.5q71 0 110.5 31.5t39.5 84.5h153zM471 1975h154l112 -198h-101z" />
    <glyph glyph-name="uni1EB1" unicode="&#x1eb1;" horiz-adv-x="1114" 
d="M808 0q-16 32 -26 114q-129 -134 -308 -134q-160 0 -262.5 90.5t-102.5 229.5q0 169 128.5 262.5t361.5 93.5h180v85q0 97 -58 154.5t-171 57.5q-99 0 -166 -50t-67 -121h-186q0 81 57.5 156.5t156 119.5t216.5 44q187 0 293 -93.5t110 -257.5v-498q0 -149 38 -237v-16
h-194zM501 141q87 0 165 45t113 117v222h-145q-340 0 -340 -199q0 -87 58 -136t149 -49zM879 1448q0 -95 -84 -152t-219 -57q-136 0 -220 57t-84 152h152q0 -55 39.5 -85.5t112.5 -30.5q71 0 110.5 31.5t39.5 84.5h153zM380 1666h154l112 -198h-101z" />
    <glyph glyph-name="uni1EB2" unicode="&#x1eb2;" 
d="M973 380h-610l-137 -380h-198l556 1456h168l557 -1456h-197zM421 538h495l-248 681zM952 1773q0 -94 -80.5 -151t-211.5 -57q-132 0 -212.5 57.5t-80.5 150.5h146q0 -53 37 -84t110 -31q69 0 107 30.5t38 84.5h147zM604 1790l-1 124q74 4 107 16t33 41q0 59 -160 59l7 82
q144 0 218 -39t74 -105q0 -50 -40.5 -79.5t-108.5 -36.5l-1 -62h-128z" />
    <glyph glyph-name="uni1EB3" unicode="&#x1eb3;" horiz-adv-x="1114" 
d="M808 0q-16 32 -26 114q-129 -134 -308 -134q-160 0 -262.5 90.5t-102.5 229.5q0 169 128.5 262.5t361.5 93.5h180v85q0 97 -58 154.5t-171 57.5q-99 0 -166 -50t-67 -121h-186q0 81 57.5 156.5t156 119.5t216.5 44q187 0 293 -93.5t110 -257.5v-498q0 -149 38 -237v-16
h-194zM501 141q87 0 165 45t113 117v222h-145q-340 0 -340 -199q0 -87 58 -136t149 -49zM861 1463q0 -94 -80.5 -151t-211.5 -57q-132 0 -212.5 57.5t-80.5 150.5h146q0 -53 37 -84t110 -31q69 0 107 30.5t38 84.5h147zM513 1480l-1 124q74 4 107 16t33 41q0 59 -160 59
l7 82q144 0 218 -39t74 -105q0 -50 -40.5 -79.5t-108.5 -36.5l-1 -62h-128z" />
    <glyph glyph-name="uni1EB4" unicode="&#x1eb4;" 
d="M973 380h-610l-137 -380h-198l556 1456h168l557 -1456h-197zM421 538h495l-248 681zM960 1779q0 -95 -80.5 -154t-214.5 -59q-135 0 -215.5 59t-80.5 154h150q0 -54 37 -86t109 -32q71 0 108 32t37 86h150zM951 2045q0 -74 -48 -126.5t-118 -52.5q-58 0 -117.5 37.5
t-103.5 37.5q-34 0 -58 -25.5t-24 -63.5l-83 21q0 75 48 128.5t117 53.5q48 0 112.5 -37.5t108.5 -37.5q35 0 59 25.5t24 63.5z" />
    <glyph glyph-name="uni1EB5" unicode="&#x1eb5;" horiz-adv-x="1114" 
d="M808 0q-16 32 -26 114q-129 -134 -308 -134q-160 0 -262.5 90.5t-102.5 229.5q0 169 128.5 262.5t361.5 93.5h180v85q0 97 -58 154.5t-171 57.5q-99 0 -166 -50t-67 -121h-186q0 81 57.5 156.5t156 119.5t216.5 44q187 0 293 -93.5t110 -257.5v-498q0 -149 38 -237v-16
h-194zM501 141q87 0 165 45t113 117v222h-145q-340 0 -340 -199q0 -87 58 -136t149 -49zM869 1469q0 -95 -80.5 -154t-214.5 -59q-135 0 -215.5 59t-80.5 154h150q0 -54 37 -86t109 -32q71 0 108 32t37 86h150zM860 1735q0 -74 -48 -126.5t-118 -52.5q-58 0 -117.5 37.5
t-103.5 37.5q-34 0 -58 -25.5t-24 -63.5l-83 21q0 75 48 128.5t117 53.5q48 0 112.5 -37.5t108.5 -37.5q35 0 59 25.5t24 63.5z" />
    <glyph glyph-name="uni1EB6" unicode="&#x1eb6;" 
d="M973 380h-610l-137 -380h-198l556 1456h168l557 -1456h-197zM421 538h495l-248 681zM972 1806q0 -121 -82.5 -194.5t-216.5 -73.5t-217 74t-83 194h151q0 -70 38 -109.5t111 -39.5q70 0 109.5 39t39.5 110h150zM570 -245q0 45 27.5 76t81.5 31t82 -31t28 -76t-28 -75
t-82 -30t-81.5 30t-27.5 75z" />
    <glyph glyph-name="uni1EB7" unicode="&#x1eb7;" horiz-adv-x="1114" 
d="M808 0q-16 32 -26 114q-129 -134 -308 -134q-160 0 -262.5 90.5t-102.5 229.5q0 169 128.5 262.5t361.5 93.5h180v85q0 97 -58 154.5t-171 57.5q-99 0 -166 -50t-67 -121h-186q0 81 57.5 156.5t156 119.5t216.5 44q187 0 293 -93.5t110 -257.5v-498q0 -149 38 -237v-16
h-194zM501 141q87 0 165 45t113 117v222h-145q-340 0 -340 -199q0 -87 58 -136t149 -49zM881 1496q0 -121 -82.5 -194.5t-216.5 -73.5t-217 74t-83 194h151q0 -70 38 -109.5t111 -39.5q70 0 109.5 39t39.5 110h150zM386 -245q0 45 27.5 76t81.5 31t82 -31t28 -76t-28 -75
t-82 -30t-81.5 30t-27.5 75z" />
    <glyph glyph-name="uni1EB8" unicode="&#x1eb8;" horiz-adv-x="1164" 
d="M992 673h-631v-516h733v-157h-925v1456h915v-158h-723v-468h631v-157zM504 -235q0 45 27.5 76t81.5 31t82 -31t28 -76t-28 -75t-82 -30t-81.5 30t-27.5 75z" />
    <glyph glyph-name="uni1EB9" unicode="&#x1eb9;" horiz-adv-x="1085" 
d="M589 -20q-220 0 -358 144.5t-138 386.5v34q0 161 61.5 287.5t172 198t239.5 71.5q211 0 328 -139t117 -398v-77h-733q4 -160 93.5 -258.5t227.5 -98.5q98 0 166 40t119 106l113 -88q-136 -209 -408 -209zM566 950q-112 0 -188 -81.5t-94 -228.5h542v14q-8 141 -76 218.5
t-184 77.5zM452 -245q0 45 27.5 76t81.5 31t82 -31t28 -76t-28 -75t-82 -30t-81.5 30t-27.5 75z" />
    <glyph glyph-name="uni1EBA" unicode="&#x1eba;" horiz-adv-x="1164" 
d="M992 673h-631v-516h733v-157h-925v1456h915v-158h-723v-468h631v-157zM557 1579l-1 153q75 5 110 20t35 54t-45.5 58.5t-120.5 19.5l7 106q149 0 226 -51.5t77 -136.5q0 -61 -39 -101t-116 -51l-1 -71h-132z" />
    <glyph glyph-name="uni1EBB" unicode="&#x1ebb;" horiz-adv-x="1085" 
d="M589 -20q-220 0 -358 144.5t-138 386.5v34q0 161 61.5 287.5t172 198t239.5 71.5q211 0 328 -139t117 -398v-77h-733q4 -160 93.5 -258.5t227.5 -98.5q98 0 166 40t119 106l113 -88q-136 -209 -408 -209zM566 950q-112 0 -188 -81.5t-94 -228.5h542v14q-8 141 -76 218.5
t-184 77.5zM503 1257l-1 153q75 5 110 20t35 54t-45.5 58.5t-120.5 19.5l7 106q149 0 226 -51.5t77 -136.5q0 -61 -39 -101t-116 -51l-1 -71h-132z" />
    <glyph glyph-name="uni1EBC" unicode="&#x1ebc;" horiz-adv-x="1164" 
d="M992 673h-631v-516h733v-157h-925v1456h915v-158h-723v-468h631v-157zM974 1826q0 -108 -61.5 -175t-153.5 -67q-41 0 -71 10t-78.5 41t-70 37.5t-49.5 6.5q-41 0 -70 -31.5t-29 -80.5l-124 7q0 107 60.5 177t153.5 70q35 0 63 -10t76 -39t73.5 -38t56.5 -9q43 0 71.5 34
t28.5 79z" />
    <glyph glyph-name="uni1EBD" unicode="&#x1ebd;" horiz-adv-x="1085" 
d="M589 -20q-220 0 -358 144.5t-138 386.5v34q0 161 61.5 287.5t172 198t239.5 71.5q211 0 328 -139t117 -398v-77h-733q4 -160 93.5 -258.5t227.5 -98.5q98 0 166 40t119 106l113 -88q-136 -209 -408 -209zM566 950q-112 0 -188 -81.5t-94 -228.5h542v14q-8 141 -76 218.5
t-184 77.5zM920 1504q0 -108 -61.5 -175t-153.5 -67q-41 0 -71 10t-78.5 41t-70 37.5t-49.5 6.5q-41 0 -70 -31.5t-29 -80.5l-124 7q0 107 60.5 177t153.5 70q35 0 63 -10t76 -39t73.5 -38t56.5 -9q43 0 71.5 34t28.5 79z" />
    <glyph glyph-name="uni1EBE" unicode="&#x1ebe;" horiz-adv-x="1164" 
d="M992 673h-631v-516h733v-157h-925v1456h915v-158h-723v-468h631v-157zM544 1826h152l290 -263h-197l-169 159l-170 -159h-198zM1054 1999h200l-201 -259h-141z" />
    <glyph glyph-name="uni1EBF" unicode="&#x1ebf;" horiz-adv-x="1085" 
d="M589 -20q-220 0 -358 144.5t-138 386.5v34q0 161 61.5 287.5t172 198t239.5 71.5q211 0 328 -139t117 -398v-77h-733q4 -160 93.5 -258.5t227.5 -98.5q98 0 166 40t119 106l113 -88q-136 -209 -408 -209zM566 950q-112 0 -188 -81.5t-94 -228.5h542v14q-8 141 -76 218.5
t-184 77.5zM490 1505h152l290 -263h-197l-169 159l-170 -159h-198zM1000 1678h200l-201 -259h-141z" />
    <glyph glyph-name="uni1EC0" unicode="&#x1ec0;" horiz-adv-x="1164" 
d="M992 673h-631v-516h733v-157h-925v1456h915v-158h-723v-468h631v-157zM984 1560h-197l-170 158l-170 -158h-196l290 262h152zM324 1737h-140l-200 258h199z" />
    <glyph glyph-name="uni1EC1" unicode="&#x1ec1;" horiz-adv-x="1085" 
d="M589 -20q-220 0 -358 144.5t-138 386.5v34q0 161 61.5 287.5t172 198t239.5 71.5q211 0 328 -139t117 -398v-77h-733q4 -160 93.5 -258.5t227.5 -98.5q98 0 166 40t119 106l113 -88q-136 -209 -408 -209zM566 950q-112 0 -188 -81.5t-94 -228.5h542v14q-8 141 -76 218.5
t-184 77.5zM930 1238h-197l-170 158l-170 -158h-196l290 262h152zM270 1415h-140l-200 258h199z" />
    <glyph glyph-name="uni1EC2" unicode="&#x1ec2;" horiz-adv-x="1164" 
d="M992 673h-631v-516h733v-157h-925v1456h915v-158h-723v-468h631v-157zM985 1547h-170l-197 186l-197 -186h-169l272 262h188zM902 1685l-1 131q65 4 94.5 17t29.5 46q0 67 -141 67l5 92q128 0 195 -44t67 -117q0 -59 -37 -92t-97 -40l-1 -60h-114z" />
    <glyph glyph-name="uni1EC3" unicode="&#x1ec3;" horiz-adv-x="1085" 
d="M589 -20q-220 0 -358 144.5t-138 386.5v34q0 161 61.5 287.5t172 198t239.5 71.5q211 0 328 -139t117 -398v-77h-733q4 -160 93.5 -258.5t227.5 -98.5q98 0 166 40t119 106l113 -88q-136 -209 -408 -209zM566 950q-112 0 -188 -81.5t-94 -228.5h542v14q-8 141 -76 218.5
t-184 77.5zM931 1226h-170l-197 186l-197 -186h-169l272 262h188zM848 1364l-1 131q65 4 94.5 17t29.5 46q0 67 -141 67l5 92q128 0 195 -44t67 -117q0 -59 -37 -92t-97 -40l-1 -60h-114z" />
    <glyph glyph-name="uni1EC4" unicode="&#x1ec4;" horiz-adv-x="1164" 
d="M992 673h-631v-516h733v-157h-925v1456h915v-158h-723v-468h631v-157zM984 1526h-170l-197 158l-197 -158h-169l301 244h131zM878 1999q0 -62 -48 -109t-113 -47q-54 0 -109 35.5t-95 35.5q-29 0 -56 -23t-27 -52l-77 19q0 63 48 112t112 49q42 0 104 -35t100 -35
q31 0 57 22.5t26 50.5z" />
    <glyph glyph-name="uni1EC5" unicode="&#x1ec5;" horiz-adv-x="1085" 
d="M589 -20q-220 0 -358 144.5t-138 386.5v34q0 161 61.5 287.5t172 198t239.5 71.5q211 0 328 -139t117 -398v-77h-733q4 -160 93.5 -258.5t227.5 -98.5q98 0 166 40t119 106l113 -88q-136 -209 -408 -209zM566 950q-112 0 -188 -81.5t-94 -228.5h542v14q-8 141 -76 218.5
t-184 77.5zM930 1205h-170l-197 158l-197 -158h-169l301 244h131zM824 1678q0 -62 -48 -109t-113 -47q-54 0 -109 35.5t-95 35.5q-29 0 -56 -23t-27 -52l-77 19q0 63 48 112t112 49q42 0 104 -35t100 -35q31 0 57 22.5t26 50.5z" />
    <glyph glyph-name="uni1EC6" unicode="&#x1ec6;" horiz-adv-x="1164" 
d="M992 673h-631v-516h733v-157h-925v1456h915v-158h-723v-468h631v-157zM922 1584v-10h-153l-150 170l-149 -170h-153v12l246 272h112zM504 -235q0 45 27.5 76t81.5 31t82 -31t28 -76t-28 -75t-82 -30t-81.5 30t-27.5 75z" />
    <glyph glyph-name="uni1EC7" unicode="&#x1ec7;" horiz-adv-x="1085" 
d="M589 -20q-220 0 -358 144.5t-138 386.5v34q0 161 61.5 287.5t172 198t239.5 71.5q211 0 328 -139t117 -398v-77h-733q4 -160 93.5 -258.5t227.5 -98.5q98 0 166 40t119 106l113 -88q-136 -209 -408 -209zM566 950q-112 0 -188 -81.5t-94 -228.5h542v14q-8 141 -76 218.5
t-184 77.5zM868 1262v-10h-153l-150 170l-149 -170h-153v12l246 272h112zM452 -245q0 45 27.5 76t81.5 31t82 -31t28 -76t-28 -75t-82 -30t-81.5 30t-27.5 75z" />
    <glyph glyph-name="uni1EC8" unicode="&#x1ec8;" horiz-adv-x="557" 
d="M375 0h-192v1456h192v-1456zM216 1579l-1 153q75 5 110 20t35 54t-45.5 58.5t-120.5 19.5l7 106q149 0 226 -51.5t77 -136.5q0 -61 -39 -101t-116 -51l-1 -71h-132z" />
    <glyph glyph-name="uni1EC9" unicode="&#x1ec9;" horiz-adv-x="506" 
d="M341 0h-186v1082h186v-1082zM190 1255l-1 153q75 5 110 20t35 54t-45.5 58.5t-120.5 19.5l7 106q149 0 226 -51.5t77 -136.5q0 -61 -39 -101t-116 -51l-1 -71h-132z" />
    <glyph glyph-name="uni1ECA" unicode="&#x1eca;" horiz-adv-x="557" 
d="M375 0h-192v1456h192v-1456zM163 -236q0 45 27.5 76t81.5 31t82 -31t28 -76t-28 -75t-82 -30t-81.5 30t-27.5 75z" />
    <glyph glyph-name="uni1ECB" unicode="&#x1ecb;" horiz-adv-x="497" 
d="M341 0h-185v1082h185v-1082zM141 1369q0 45 27.5 76t81.5 31t82 -31t28 -76t-28 -75t-82 -30t-81.5 30t-27.5 75zM133 -235q0 45 27.5 76t81.5 31t82 -31t28 -76t-28 -75t-82 -30t-81.5 30t-27.5 75z" />
    <glyph glyph-name="uni1ECC" unicode="&#x1ecc;" horiz-adv-x="1408" 
d="M1289 681q0 -214 -72 -373.5t-204 -243.5t-308 -84q-172 0 -305 84.5t-206.5 241t-75.5 362.5v105q0 210 73 371t206.5 246.5t305.5 85.5q175 0 308.5 -84.5t205.5 -245t72 -373.5v-92zM1098 775q0 259 -104 397.5t-291 138.5q-182 0 -286.5 -138.5t-107.5 -384.5v-107
q0 -251 105.5 -394.5t290.5 -143.5q186 0 288 135.5t105 388.5v108zM592 -245q0 45 27.5 76t81.5 31t82 -31t28 -76t-28 -75t-82 -30t-81.5 30t-27.5 75z" />
    <glyph glyph-name="uni1ECD" unicode="&#x1ecd;" horiz-adv-x="1168" 
d="M91 551q0 159 62.5 286t174 196t254.5 69q221 0 357.5 -153t136.5 -407v-13q0 -158 -60.5 -283.5t-173 -195.5t-258.5 -70q-220 0 -356.5 153t-136.5 405v13zM277 529q0 -180 83.5 -289t223.5 -109q141 0 224 110.5t83 309.5q0 178 -84.5 288.5t-224.5 110.5
q-137 0 -221 -109t-84 -312zM469 -245q0 45 27.5 76t81.5 31t82 -31t28 -76t-28 -75t-82 -30t-81.5 30t-27.5 75z" />
    <glyph glyph-name="uni1ECE" unicode="&#x1ece;" horiz-adv-x="1408" 
d="M1289 681q0 -214 -72 -373.5t-204 -243.5t-308 -84q-172 0 -305 84.5t-206.5 241t-75.5 362.5v105q0 210 73 371t206.5 246.5t305.5 85.5q175 0 308.5 -84.5t205.5 -245t72 -373.5v-92zM1098 775q0 259 -104 397.5t-291 138.5q-182 0 -286.5 -138.5t-107.5 -384.5v-107
q0 -251 105.5 -394.5t290.5 -143.5q186 0 288 135.5t105 388.5v108zM644 1569l-1 153q75 5 110 20t35 54t-45.5 58.5t-120.5 19.5l7 106q149 0 226 -51.5t77 -136.5q0 -61 -39 -101t-116 -51l-1 -71h-132z" />
    <glyph glyph-name="uni1ECF" unicode="&#x1ecf;" horiz-adv-x="1168" 
d="M91 551q0 159 62.5 286t174 196t254.5 69q221 0 357.5 -153t136.5 -407v-13q0 -158 -60.5 -283.5t-173 -195.5t-258.5 -70q-220 0 -356.5 153t-136.5 405v13zM277 529q0 -180 83.5 -289t223.5 -109q141 0 224 110.5t83 309.5q0 178 -84.5 288.5t-224.5 110.5
q-137 0 -221 -109t-84 -312zM513 1257l-1 153q75 5 110 20t35 54t-45.5 58.5t-120.5 19.5l7 106q149 0 226 -51.5t77 -136.5q0 -61 -39 -101t-116 -51l-1 -71h-132z" />
    <glyph glyph-name="uni1ED0" unicode="&#x1ed0;" horiz-adv-x="1408" 
d="M1289 681q0 -214 -72 -373.5t-204 -243.5t-308 -84q-172 0 -305 84.5t-206.5 241t-75.5 362.5v105q0 210 73 371t206.5 246.5t305.5 85.5q175 0 308.5 -84.5t205.5 -245t72 -373.5v-92zM1098 775q0 259 -104 397.5t-291 138.5q-182 0 -286.5 -138.5t-107.5 -384.5v-107
q0 -251 105.5 -394.5t290.5 -143.5q186 0 288 135.5t105 388.5v108zM631 1816h152l290 -263h-197l-169 159l-170 -159h-198zM1141 1989h200l-201 -259h-141z" />
    <glyph glyph-name="uni1ED1" unicode="&#x1ed1;" horiz-adv-x="1168" 
d="M91 551q0 159 62.5 286t174 196t254.5 69q221 0 357.5 -153t136.5 -407v-13q0 -158 -60.5 -283.5t-173 -195.5t-258.5 -70q-220 0 -356.5 153t-136.5 405v13zM277 529q0 -180 83.5 -289t223.5 -109q141 0 224 110.5t83 309.5q0 178 -84.5 288.5t-224.5 110.5
q-137 0 -221 -109t-84 -312zM500 1505h152l290 -263h-197l-169 159l-170 -159h-198zM1010 1678h200l-201 -259h-141z" />
    <glyph glyph-name="uni1ED2" unicode="&#x1ed2;" horiz-adv-x="1408" 
d="M1289 681q0 -214 -72 -373.5t-204 -243.5t-308 -84q-172 0 -305 84.5t-206.5 241t-75.5 362.5v105q0 210 73 371t206.5 246.5t305.5 85.5q175 0 308.5 -84.5t205.5 -245t72 -373.5v-92zM1098 775q0 259 -104 397.5t-291 138.5q-182 0 -286.5 -138.5t-107.5 -384.5v-107
q0 -251 105.5 -394.5t290.5 -143.5q186 0 288 135.5t105 388.5v108zM1071 1550h-197l-170 158l-170 -158h-196l290 262h152zM411 1727h-140l-200 258h199z" />
    <glyph glyph-name="uni1ED3" unicode="&#x1ed3;" horiz-adv-x="1168" 
d="M91 551q0 159 62.5 286t174 196t254.5 69q221 0 357.5 -153t136.5 -407v-13q0 -158 -60.5 -283.5t-173 -195.5t-258.5 -70q-220 0 -356.5 153t-136.5 405v13zM277 529q0 -180 83.5 -289t223.5 -109q141 0 224 110.5t83 309.5q0 178 -84.5 288.5t-224.5 110.5
q-137 0 -221 -109t-84 -312zM940 1238h-197l-170 158l-170 -158h-196l290 262h152zM280 1415h-140l-200 258h199z" />
    <glyph glyph-name="uni1ED4" unicode="&#x1ed4;" horiz-adv-x="1408" 
d="M1289 681q0 -214 -72 -373.5t-204 -243.5t-308 -84q-172 0 -305 84.5t-206.5 241t-75.5 362.5v105q0 210 73 371t206.5 246.5t305.5 85.5q175 0 308.5 -84.5t205.5 -245t72 -373.5v-92zM1098 775q0 259 -104 397.5t-291 138.5q-182 0 -286.5 -138.5t-107.5 -384.5v-107
q0 -251 105.5 -394.5t290.5 -143.5q186 0 288 135.5t105 388.5v108zM1072 1537h-170l-197 186l-197 -186h-169l272 262h188zM989 1675l-1 131q65 4 94.5 17t29.5 46q0 67 -141 67l5 92q128 0 195 -44t67 -117q0 -59 -37 -92t-97 -40l-1 -60h-114z" />
    <glyph glyph-name="uni1ED5" unicode="&#x1ed5;" horiz-adv-x="1168" 
d="M91 551q0 159 62.5 286t174 196t254.5 69q221 0 357.5 -153t136.5 -407v-13q0 -158 -60.5 -283.5t-173 -195.5t-258.5 -70q-220 0 -356.5 153t-136.5 405v13zM277 529q0 -180 83.5 -289t223.5 -109q141 0 224 110.5t83 309.5q0 178 -84.5 288.5t-224.5 110.5
q-137 0 -221 -109t-84 -312zM941 1226h-170l-197 186l-197 -186h-169l272 262h188zM858 1364l-1 131q65 4 94.5 17t29.5 46q0 67 -141 67l5 92q128 0 195 -44t67 -117q0 -59 -37 -92t-97 -40l-1 -60h-114z" />
    <glyph glyph-name="uni1ED6" unicode="&#x1ed6;" horiz-adv-x="1408" 
d="M1289 681q0 -214 -72 -373.5t-204 -243.5t-308 -84q-172 0 -305 84.5t-206.5 241t-75.5 362.5v105q0 210 73 371t206.5 246.5t305.5 85.5q175 0 308.5 -84.5t205.5 -245t72 -373.5v-92zM1098 775q0 259 -104 397.5t-291 138.5q-182 0 -286.5 -138.5t-107.5 -384.5v-107
q0 -251 105.5 -394.5t290.5 -143.5q186 0 288 135.5t105 388.5v108zM1071 1516h-170l-197 158l-197 -158h-169l301 244h131zM965 1989q0 -62 -48 -109t-113 -47q-54 0 -109 35.5t-95 35.5q-29 0 -56 -23t-27 -52l-77 19q0 63 48 112t112 49q42 0 104 -35t100 -35
q31 0 57 22.5t26 50.5z" />
    <glyph glyph-name="uni1ED7" unicode="&#x1ed7;" horiz-adv-x="1168" 
d="M91 551q0 159 62.5 286t174 196t254.5 69q221 0 357.5 -153t136.5 -407v-13q0 -158 -60.5 -283.5t-173 -195.5t-258.5 -70q-220 0 -356.5 153t-136.5 405v13zM277 529q0 -180 83.5 -289t223.5 -109q141 0 224 110.5t83 309.5q0 178 -84.5 288.5t-224.5 110.5
q-137 0 -221 -109t-84 -312zM940 1205h-170l-197 158l-197 -158h-169l301 244h131zM834 1678q0 -62 -48 -109t-113 -47q-54 0 -109 35.5t-95 35.5q-29 0 -56 -23t-27 -52l-77 19q0 63 48 112t112 49q42 0 104 -35t100 -35q31 0 57 22.5t26 50.5z" />
    <glyph glyph-name="uni1ED8" unicode="&#x1ed8;" horiz-adv-x="1408" 
d="M1289 681q0 -214 -72 -373.5t-204 -243.5t-308 -84q-172 0 -305 84.5t-206.5 241t-75.5 362.5v105q0 210 73 371t206.5 246.5t305.5 85.5q175 0 308.5 -84.5t205.5 -245t72 -373.5v-92zM1098 775q0 259 -104 397.5t-291 138.5q-182 0 -286.5 -138.5t-107.5 -384.5v-107
q0 -251 105.5 -394.5t290.5 -143.5q186 0 288 135.5t105 388.5v108zM1009 1574v-10h-153l-150 170l-149 -170h-153v12l246 272h112zM592 -245q0 45 27.5 76t81.5 31t82 -31t28 -76t-28 -75t-82 -30t-81.5 30t-27.5 75z" />
    <glyph glyph-name="uni1ED9" unicode="&#x1ed9;" horiz-adv-x="1168" 
d="M91 551q0 159 62.5 286t174 196t254.5 69q221 0 357.5 -153t136.5 -407v-13q0 -158 -60.5 -283.5t-173 -195.5t-258.5 -70q-220 0 -356.5 153t-136.5 405v13zM277 529q0 -180 83.5 -289t223.5 -109q141 0 224 110.5t83 309.5q0 178 -84.5 288.5t-224.5 110.5
q-137 0 -221 -109t-84 -312zM878 1262v-10h-153l-150 170l-149 -170h-153v12l246 272h112zM469 -245q0 45 27.5 76t81.5 31t82 -31t28 -76t-28 -75t-82 -30t-81.5 30t-27.5 75z" />
    <glyph glyph-name="uni1EDA" unicode="&#x1eda;" horiz-adv-x="1406" 
d="M1272 681q0 -214 -72 -373.5t-204 -243.5t-308 -84q-171 0 -304 84t-207.5 243t-75.5 366v100q0 210 73 370.5t206.5 246.5t305.5 86q240 0 395 -155q96 7 142.5 72.5t46.5 197.5h167q0 -333 -263 -394q97 -172 98 -418v-98zM1082 775q0 258 -103.5 397t-292.5 139
q-182 0 -286.5 -138.5t-107.5 -384.5v-107q0 -251 105.5 -394.5t290.5 -143.5q191 0 292.5 141t101.5 398v93zM793 1841h224l-268 -294h-149z" />
    <glyph glyph-name="uni1EDB" unicode="&#x1edb;" horiz-adv-x="1170" 
d="M91 551q0 159 61.5 285.5t174 196t255.5 69.5q207 0 343 -138q71 8 103 58t32 178h150q0 -291 -207 -342q73 -138 73 -307v-22q0 -158 -62 -285t-174 -195.5t-256 -68.5q-222 0 -357.5 153.5t-135.5 404.5v13zM276 529q0 -180 83.5 -289t224.5 -109q139 0 222.5 109.5
t83.5 294.5v16q0 181 -84.5 290t-223.5 109q-138 0 -222 -109t-84 -312zM673 1536h224l-268 -294h-149z" />
    <glyph glyph-name="uni1EDC" unicode="&#x1edc;" horiz-adv-x="1406" 
d="M1272 681q0 -214 -72 -373.5t-204 -243.5t-308 -84q-171 0 -304 84t-207.5 243t-75.5 366v100q0 210 73 370.5t206.5 246.5t305.5 86q240 0 395 -155q96 7 142.5 72.5t46.5 197.5h167q0 -333 -263 -394q97 -172 98 -418v-98zM1082 775q0 258 -103.5 397t-292.5 139
q-182 0 -286.5 -138.5t-107.5 -384.5v-107q0 -251 105.5 -394.5t290.5 -143.5q191 0 292.5 141t101.5 398v93zM808 1547h-159l-258 294h223z" />
    <glyph glyph-name="uni1EDD" unicode="&#x1edd;" horiz-adv-x="1170" 
d="M91 551q0 159 61.5 285.5t174 196t255.5 69.5q207 0 343 -138q71 8 103 58t32 178h150q0 -291 -207 -342q73 -138 73 -307v-22q0 -158 -62 -285t-174 -195.5t-256 -68.5q-222 0 -357.5 153.5t-135.5 404.5v13zM276 529q0 -180 83.5 -289t224.5 -109q139 0 222.5 109.5
t83.5 294.5v16q0 181 -84.5 290t-223.5 109q-138 0 -222 -109t-84 -312zM688 1242h-159l-258 294h223z" />
    <glyph glyph-name="uni1EDE" unicode="&#x1ede;" horiz-adv-x="1406" 
d="M1272 681q0 -214 -72 -373.5t-204 -243.5t-308 -84q-171 0 -304 84t-207.5 243t-75.5 366v100q0 210 73 370.5t206.5 246.5t305.5 86q240 0 395 -155q96 7 142.5 72.5t46.5 197.5h167q0 -333 -263 -394q97 -172 98 -418v-98zM1082 775q0 258 -103.5 397t-292.5 139
q-182 0 -286.5 -138.5t-107.5 -384.5v-107q0 -251 105.5 -394.5t290.5 -143.5q191 0 292.5 141t101.5 398v93zM640 1562l-1 153q75 5 110 20t35 54t-45.5 58.5t-120.5 19.5l7 106q149 0 226 -51.5t77 -136.5q0 -61 -39 -101t-116 -51l-1 -71h-132z" />
    <glyph glyph-name="uni1EDF" unicode="&#x1edf;" horiz-adv-x="1170" 
d="M91 551q0 159 61.5 285.5t174 196t255.5 69.5q207 0 343 -138q71 8 103 58t32 178h150q0 -291 -207 -342q73 -138 73 -307v-22q0 -158 -62 -285t-174 -195.5t-256 -68.5q-222 0 -357.5 153.5t-135.5 404.5v13zM276 529q0 -180 83.5 -289t224.5 -109q139 0 222.5 109.5
t83.5 294.5v16q0 181 -84.5 290t-223.5 109q-138 0 -222 -109t-84 -312zM520 1257l-1 153q75 5 110 20t35 54t-45.5 58.5t-120.5 19.5l7 106q149 0 226 -51.5t77 -136.5q0 -61 -39 -101t-116 -51l-1 -71h-132z" />
    <glyph glyph-name="uni1EE0" unicode="&#x1ee0;" horiz-adv-x="1406" 
d="M1272 681q0 -214 -72 -373.5t-204 -243.5t-308 -84q-171 0 -304 84t-207.5 243t-75.5 366v100q0 210 73 370.5t206.5 246.5t305.5 86q240 0 395 -155q96 7 142.5 72.5t46.5 197.5h167q0 -333 -263 -394q97 -172 98 -418v-98zM1082 775q0 258 -103.5 397t-292.5 139
q-182 0 -286.5 -138.5t-107.5 -384.5v-107q0 -251 105.5 -394.5t290.5 -143.5q191 0 292.5 141t101.5 398v93zM1057 1809q0 -108 -61.5 -175t-153.5 -67q-41 0 -71 10t-78.5 41t-70 37.5t-49.5 6.5q-41 0 -70 -31.5t-29 -80.5l-124 7q0 107 60.5 177t153.5 70q35 0 63 -10
t76 -39t73.5 -38t56.5 -9q43 0 71.5 34t28.5 79z" />
    <glyph glyph-name="uni1EE1" unicode="&#x1ee1;" horiz-adv-x="1170" 
d="M91 551q0 159 61.5 285.5t174 196t255.5 69.5q207 0 343 -138q71 8 103 58t32 178h150q0 -291 -207 -342q73 -138 73 -307v-22q0 -158 -62 -285t-174 -195.5t-256 -68.5q-222 0 -357.5 153.5t-135.5 404.5v13zM276 529q0 -180 83.5 -289t224.5 -109q139 0 222.5 109.5
t83.5 294.5v16q0 181 -84.5 290t-223.5 109q-138 0 -222 -109t-84 -312zM937 1504q0 -108 -61.5 -175t-153.5 -67q-41 0 -71 10t-78.5 41t-70 37.5t-49.5 6.5q-41 0 -70 -31.5t-29 -80.5l-124 7q0 107 60.5 177t153.5 70q35 0 63 -10t76 -39t73.5 -38t56.5 -9q43 0 71.5 34
t28.5 79z" />
    <glyph glyph-name="uni1EE2" unicode="&#x1ee2;" horiz-adv-x="1406" 
d="M1272 681q0 -214 -72 -373.5t-204 -243.5t-308 -84q-171 0 -304 84t-207.5 243t-75.5 366v100q0 210 73 370.5t206.5 246.5t305.5 86q240 0 395 -155q96 7 142.5 72.5t46.5 197.5h167q0 -333 -263 -394q97 -172 98 -418v-98zM1082 775q0 258 -103.5 397t-292.5 139
q-182 0 -286.5 -138.5t-107.5 -384.5v-107q0 -251 105.5 -394.5t290.5 -143.5q191 0 292.5 141t101.5 398v93zM577 -245q0 45 27.5 76t81.5 31t82 -31t28 -76t-28 -75t-82 -30t-81.5 30t-27.5 75z" />
    <glyph glyph-name="uni1EE3" unicode="&#x1ee3;" horiz-adv-x="1170" 
d="M91 551q0 159 61.5 285.5t174 196t255.5 69.5q207 0 343 -138q71 8 103 58t32 178h150q0 -291 -207 -342q73 -138 73 -307v-22q0 -158 -62 -285t-174 -195.5t-256 -68.5q-222 0 -357.5 153.5t-135.5 404.5v13zM276 529q0 -180 83.5 -289t224.5 -109q139 0 222.5 109.5
t83.5 294.5v16q0 181 -84.5 290t-223.5 109q-138 0 -222 -109t-84 -312zM467 -254q0 45 27.5 76t81.5 31t82 -31t28 -76t-28 -75t-82 -30t-81.5 30t-27.5 75z" />
    <glyph glyph-name="uni1EE4" unicode="&#x1ee4;" horiz-adv-x="1328" 
d="M1194 1456v-990q-1 -206 -129.5 -337t-348.5 -147l-51 -2q-239 0 -381 129t-144 355v992h190v-986q0 -158 87 -245.5t248 -87.5q163 0 249.5 87t86.5 245v987h193zM550 -245q0 45 27.5 76t81.5 31t82 -31t28 -76t-28 -75t-82 -30t-81.5 30t-27.5 75z" />
    <glyph glyph-name="uni1EE5" unicode="&#x1ee5;" horiz-adv-x="1129" 
d="M808 107q-108 -127 -317 -127q-173 0 -263.5 100.5t-91.5 297.5v704h185v-699q0 -246 200 -246q212 0 282 158v787h185v-1082h-176zM393 -245q0 45 27.5 76t81.5 31t82 -31t28 -76t-28 -75t-82 -30t-81.5 30t-27.5 75z" />
    <glyph glyph-name="uni1EE6" unicode="&#x1ee6;" horiz-adv-x="1328" 
d="M1194 1456v-990q-1 -206 -129.5 -337t-348.5 -147l-51 -2q-239 0 -381 129t-144 355v992h190v-986q0 -158 87 -245.5t248 -87.5q163 0 249.5 87t86.5 245v987h193zM605 1567l-1 153q75 5 110 20t35 54t-45.5 58.5t-120.5 19.5l7 106q149 0 226 -51.5t77 -136.5
q0 -61 -39 -101t-116 -51l-1 -71h-132z" />
    <glyph glyph-name="uni1EE7" unicode="&#x1ee7;" horiz-adv-x="1129" 
d="M808 107q-108 -127 -317 -127q-173 0 -263.5 100.5t-91.5 297.5v704h185v-699q0 -246 200 -246q212 0 282 158v787h185v-1082h-176zM505 1257l-1 153q75 5 110 20t35 54t-45.5 58.5t-120.5 19.5l7 106q149 0 226 -51.5t77 -136.5q0 -61 -39 -101t-116 -51l-1 -71h-132z
" />
    <glyph glyph-name="uni1EE8" unicode="&#x1ee8;" horiz-adv-x="1424" 
d="M1194 1456v-213q115 11 163.5 79.5t48.5 215.5h159q0 -210 -88.5 -314.5t-282.5 -116.5v-642q-1 -199 -123 -329t-333 -152l-73 -4q-239 0 -381 129t-144 355v992h190v-986q0 -158 87 -245.5t248 -87.5q163 0 249.5 87t86.5 245v987h193zM784 1858h224l-268 -294h-149z
" />
    <glyph glyph-name="uni1EE9" unicode="&#x1ee9;" horiz-adv-x="1267" 
d="M1295 1168q0 -180 -73.5 -253.5t-233.5 -77.5v-837h-176l-4 107q-108 -127 -317 -127q-173 0 -263.5 100.5t-91.5 297.5v704h185v-699q0 -246 200 -246q212 0 282 158v787h185v-131q68 2 102 19.5t48.5 53.5t14.5 144h142zM671 1516h224l-268 -294h-149z" />
    <glyph glyph-name="uni1EEA" unicode="&#x1eea;" horiz-adv-x="1424" 
d="M1194 1456v-213q115 11 163.5 79.5t48.5 215.5h159q0 -210 -88.5 -314.5t-282.5 -116.5v-642q-1 -199 -123 -329t-333 -152l-73 -4q-239 0 -381 129t-144 355v992h190v-986q0 -158 87 -245.5t248 -87.5q163 0 249.5 87t86.5 245v987h193zM799 1564h-159l-258 294h223z
" />
    <glyph glyph-name="uni1EEB" unicode="&#x1eeb;" horiz-adv-x="1267" 
d="M1295 1168q0 -180 -73.5 -253.5t-233.5 -77.5v-837h-176l-4 107q-108 -127 -317 -127q-173 0 -263.5 100.5t-91.5 297.5v704h185v-699q0 -246 200 -246q212 0 282 158v787h185v-131q68 2 102 19.5t48.5 53.5t14.5 144h142zM686 1222h-159l-258 294h223z" />
    <glyph glyph-name="uni1EEC" unicode="&#x1eec;" horiz-adv-x="1424" 
d="M1194 1456v-213q115 11 163.5 79.5t48.5 215.5h159q0 -210 -88.5 -314.5t-282.5 -116.5v-642q-1 -199 -123 -329t-333 -152l-73 -4q-239 0 -381 129t-144 355v992h190v-986q0 -158 87 -245.5t248 -87.5q163 0 249.5 87t86.5 245v987h193zM631 1579l-1 153q75 5 110 20
t35 54t-45.5 58.5t-120.5 19.5l7 106q149 0 226 -51.5t77 -136.5q0 -61 -39 -101t-116 -51l-1 -71h-132z" />
    <glyph glyph-name="uni1EED" unicode="&#x1eed;" horiz-adv-x="1267" 
d="M1295 1168q0 -180 -73.5 -253.5t-233.5 -77.5v-837h-176l-4 107q-108 -127 -317 -127q-173 0 -263.5 100.5t-91.5 297.5v704h185v-699q0 -246 200 -246q212 0 282 158v787h185v-131q68 2 102 19.5t48.5 53.5t14.5 144h142zM518 1237l-1 153q75 5 110 20t35 54t-45.5 58.5
t-120.5 19.5l7 106q149 0 226 -51.5t77 -136.5q0 -61 -39 -101t-116 -51l-1 -71h-132z" />
    <glyph glyph-name="uni1EEE" unicode="&#x1eee;" horiz-adv-x="1424" 
d="M1194 1456v-213q115 11 163.5 79.5t48.5 215.5h159q0 -210 -88.5 -314.5t-282.5 -116.5v-642q-1 -199 -123 -329t-333 -152l-73 -4q-239 0 -381 129t-144 355v992h190v-986q0 -158 87 -245.5t248 -87.5q163 0 249.5 87t86.5 245v987h193zM1048 1826q0 -108 -61.5 -175
t-153.5 -67q-41 0 -71 10t-78.5 41t-70 37.5t-49.5 6.5q-41 0 -70 -31.5t-29 -80.5l-124 7q0 107 60.5 177t153.5 70q35 0 63 -10t76 -39t73.5 -38t56.5 -9q43 0 71.5 34t28.5 79z" />
    <glyph glyph-name="uni1EEF" unicode="&#x1eef;" horiz-adv-x="1267" 
d="M1295 1168q0 -180 -73.5 -253.5t-233.5 -77.5v-837h-176l-4 107q-108 -127 -317 -127q-173 0 -263.5 100.5t-91.5 297.5v704h185v-699q0 -246 200 -246q212 0 282 158v787h185v-131q68 2 102 19.5t48.5 53.5t14.5 144h142zM935 1484q0 -108 -61.5 -175t-153.5 -67
q-41 0 -71 10t-78.5 41t-70 37.5t-49.5 6.5q-41 0 -70 -31.5t-29 -80.5l-124 7q0 107 60.5 177t153.5 70q35 0 63 -10t76 -39t73.5 -38t56.5 -9q43 0 71.5 34t28.5 79z" />
    <glyph glyph-name="uni1EF0" unicode="&#x1ef0;" horiz-adv-x="1424" 
d="M1194 1456v-213q115 11 163.5 79.5t48.5 215.5h159q0 -210 -88.5 -314.5t-282.5 -116.5v-642q-1 -199 -123 -329t-333 -152l-73 -4q-239 0 -381 129t-144 355v992h190v-986q0 -158 87 -245.5t248 -87.5q163 0 249.5 87t86.5 245v987h193zM577 -253q0 45 27.5 76t81.5 31
t82 -31t28 -76t-28 -75t-82 -30t-81.5 30t-27.5 75z" />
    <glyph glyph-name="uni1EF1" unicode="&#x1ef1;" horiz-adv-x="1267" 
d="M1295 1168q0 -180 -73.5 -253.5t-233.5 -77.5v-837h-176l-4 107q-108 -127 -317 -127q-173 0 -263.5 100.5t-91.5 297.5v704h185v-699q0 -246 200 -246q212 0 282 158v787h185v-131q68 2 102 19.5t48.5 53.5t14.5 144h142zM447 -245q0 45 27.5 76t81.5 31t82 -31t28 -76
t-28 -75t-82 -30t-81.5 30t-27.5 75z" />
    <glyph glyph-name="Ygrave" unicode="&#x1ef2;" horiz-adv-x="1230" 
d="M613 725l380 731h218l-502 -913v-543h-192v543l-502 913h220zM723 1552h-159l-258 294h223z" />
    <glyph glyph-name="ygrave" unicode="&#x1ef3;" horiz-adv-x="969" 
d="M494 271l252 811h198l-435 -1249q-101 -270 -321 -270l-35 3l-69 13v150l50 -4q94 0 146.5 38t86.5 139l41 110l-386 1070h202zM614 1242h-159l-258 294h223z" />
    <glyph glyph-name="uni1EF4" unicode="&#x1ef4;" horiz-adv-x="1230" 
d="M613 725l380 731h218l-502 -913v-543h-192v543l-502 913h220zM499 -245q0 45 27.5 76t81.5 31t82 -31t28 -76t-28 -75t-82 -30t-81.5 30t-27.5 75z" />
    <glyph glyph-name="uni1EF5" unicode="&#x1ef5;" horiz-adv-x="969" 
d="M494 271l252 811h198l-435 -1249q-101 -270 -321 -270l-35 3l-69 13v150l50 -4q94 0 146.5 38t86.5 139l41 110l-386 1070h202zM596 -402q0 45 27.5 76t81.5 31t82 -31t28 -76t-28 -75t-82 -30t-81.5 30t-27.5 75z" />
    <glyph glyph-name="uni1EF6" unicode="&#x1ef6;" horiz-adv-x="1230" 
d="M613 725l380 731h218l-502 -913v-543h-192v543l-502 913h220zM555 1567l-1 153q75 5 110 20t35 54t-45.5 58.5t-120.5 19.5l7 106q149 0 226 -51.5t77 -136.5q0 -61 -39 -101t-116 -51l-1 -71h-132z" />
    <glyph glyph-name="uni1EF7" unicode="&#x1ef7;" horiz-adv-x="969" 
d="M494 271l252 811h198l-435 -1249q-101 -270 -321 -270l-35 3l-69 13v150l50 -4q94 0 146.5 38t86.5 139l41 110l-386 1070h202zM446 1257l-1 153q75 5 110 20t35 54t-45.5 58.5t-120.5 19.5l7 106q149 0 226 -51.5t77 -136.5q0 -61 -39 -101t-116 -51l-1 -71h-132z" />
    <glyph glyph-name="uni1EF8" unicode="&#x1ef8;" horiz-adv-x="1230" 
d="M613 725l380 731h218l-502 -913v-543h-192v543l-502 913h220zM972 1814q0 -108 -61.5 -175t-153.5 -67q-41 0 -71 10t-78.5 41t-70 37.5t-49.5 6.5q-41 0 -70 -31.5t-29 -80.5l-124 7q0 107 60.5 177t153.5 70q35 0 63 -10t76 -39t73.5 -38t56.5 -9q43 0 71.5 34t28.5 79
z" />
    <glyph glyph-name="uni1EF9" unicode="&#x1ef9;" horiz-adv-x="969" 
d="M494 271l252 811h198l-435 -1249q-101 -270 -321 -270l-35 3l-69 13v150l50 -4q94 0 146.5 38t86.5 139l41 110l-386 1070h202zM863 1504q0 -108 -61.5 -175t-153.5 -67q-41 0 -71 10t-78.5 41t-70 37.5t-49.5 6.5q-41 0 -70 -31.5t-29 -80.5l-124 7q0 107 60.5 177
t153.5 70q35 0 63 -10t76 -39t73.5 -38t56.5 -9q43 0 71.5 34t28.5 79z" />
    <glyph glyph-name="dong" unicode="&#x20ab;" horiz-adv-x="1185" 
d="M95 550q0 249 118 400.5t309 151.5q190 0 301 -130v564h185v-1536h-170l-9 116q-111 -136 -309 -136q-188 0 -306.5 154t-118.5 402v14zM280 529q0 -184 76 -288t210 -104q176 0 257 158v497q-83 153 -255 153q-136 0 -212 -105t-76 -311zM1196 1234h-636v151h636v-151z
M1079 -307h-916v151h916v-151z" />
    <glyph glyph-name="glyph3" horiz-adv-x="507" 
 />
    <glyph glyph-name="glyph4" 
d="M973 380h-610l-137 -380h-198l556 1456h168l557 -1456h-197zM421 538h495l-248 681z" />
    <glyph glyph-name="glyph5" horiz-adv-x="1164" 
d="M992 673h-631v-516h733v-157h-925v1456h915v-158h-723v-468h631v-157z" />
    <glyph glyph-name="glyph6" horiz-adv-x="557" 
d="M375 0h-192v1456h192v-1456z" />
    <glyph glyph-name="glyph7" horiz-adv-x="1408" 
d="M1289 681q0 -214 -72 -373.5t-204 -243.5t-308 -84q-172 0 -305 84.5t-206.5 241t-75.5 362.5v105q0 210 73 371t206.5 246.5t305.5 85.5q175 0 308.5 -84.5t205.5 -245t72 -373.5v-92zM1098 775q0 259 -104 397.5t-291 138.5q-182 0 -286.5 -138.5t-107.5 -384.5v-107
q0 -251 105.5 -394.5t290.5 -143.5q186 0 288 135.5t105 388.5v108z" />
    <glyph glyph-name="glyph8" horiz-adv-x="1328" 
d="M1194 1456v-990q-1 -206 -129.5 -337t-348.5 -147l-51 -2q-239 0 -381 129t-144 355v992h190v-986q0 -158 87 -245.5t248 -87.5q163 0 249.5 87t86.5 245v987h193z" />
    <glyph glyph-name="glyph9" horiz-adv-x="1230" 
d="M613 725l380 731h218l-502 -913v-543h-192v543l-502 913h220z" />
    <glyph glyph-name="glyph10" horiz-adv-x="924" 
d="M920 -151h-916v151h916v-151z" />
    <glyph glyph-name="glyph11" horiz-adv-x="633" 
d="M474 1242h-159l-258 294h223z" />
    <glyph glyph-name="glyph12" horiz-adv-x="1114" 
d="M808 0q-16 32 -26 114q-129 -134 -308 -134q-160 0 -262.5 90.5t-102.5 229.5q0 169 128.5 262.5t361.5 93.5h180v85q0 97 -58 154.5t-171 57.5q-99 0 -166 -50t-67 -121h-186q0 81 57.5 156.5t156 119.5t216.5 44q187 0 293 -93.5t110 -257.5v-498q0 -149 38 -237v-16
h-194zM501 141q87 0 165 45t113 117v222h-145q-340 0 -340 -199q0 -87 58 -136t149 -49z" />
    <glyph glyph-name="glyph13" horiz-adv-x="1155" 
d="M95 550q0 249 118 400.5t309 151.5q190 0 301 -130v564h185v-1536h-170l-9 116q-111 -136 -309 -136q-188 0 -306.5 154t-118.5 402v14zM280 529q0 -184 76 -288t210 -104q176 0 257 158v497q-83 153 -255 153q-136 0 -212 -105t-76 -311z" />
    <glyph glyph-name="glyph14" horiz-adv-x="1085" 
d="M589 -20q-220 0 -358 144.5t-138 386.5v34q0 161 61.5 287.5t172 198t239.5 71.5q211 0 328 -139t117 -398v-77h-733q4 -160 93.5 -258.5t227.5 -98.5q98 0 166 40t119 106l113 -88q-136 -209 -408 -209zM566 950q-112 0 -188 -81.5t-94 -228.5h542v14q-8 141 -76 218.5
t-184 77.5z" />
    <glyph glyph-name="glyph15" horiz-adv-x="497" 
d="M341 0h-185v1082h185v-1082zM141 1369q0 45 27.5 76t81.5 31t82 -31t28 -76t-28 -75t-82 -30t-81.5 30t-27.5 75z" />
    <glyph glyph-name="glyph16" horiz-adv-x="1168" 
d="M91 551q0 159 62.5 286t174 196t254.5 69q221 0 357.5 -153t136.5 -407v-13q0 -158 -60.5 -283.5t-173 -195.5t-258.5 -70q-220 0 -356.5 153t-136.5 405v13zM277 529q0 -180 83.5 -289t223.5 -109q141 0 224 110.5t83 309.5q0 178 -84.5 288.5t-224.5 110.5
q-137 0 -221 -109t-84 -312z" />
    <glyph glyph-name="glyph17" horiz-adv-x="1129" 
d="M808 107q-108 -127 -317 -127q-173 0 -263.5 100.5t-91.5 297.5v704h185v-699q0 -246 200 -246q212 0 282 158v787h185v-1082h-176z" />
    <glyph glyph-name="glyph18" horiz-adv-x="969" 
d="M494 271l252 811h198l-435 -1249q-101 -270 -321 -270l-35 3l-69 13v150l50 -4q94 0 146.5 38t86.5 139l41 110l-386 1070h202z" />
    <glyph glyph-name="glyph19" horiz-adv-x="642" 
d="M316 1536h224l-268 -294h-149z" />
    <glyph glyph-name="glyph20" horiz-adv-x="506" 
d="M341 0h-186v1082h186v-1082z" />
    <glyph glyph-name="glyph21" horiz-adv-x="1406" 
d="M1272 681q0 -214 -72 -373.5t-204 -243.5t-308 -84q-171 0 -304 84t-207.5 243t-75.5 366v100q0 210 73 370.5t206.5 246.5t305.5 86q240 0 395 -155q96 7 142.5 72.5t46.5 197.5h167q0 -333 -263 -394q97 -172 98 -418v-98zM1082 775q0 258 -103.5 397t-292.5 139
q-182 0 -286.5 -138.5t-107.5 -384.5v-107q0 -251 105.5 -394.5t290.5 -143.5q191 0 292.5 141t101.5 398v93z" />
    <glyph glyph-name="glyph22" horiz-adv-x="1170" 
d="M91 551q0 159 61.5 285.5t174 196t255.5 69.5q207 0 343 -138q71 8 103 58t32 178h150q0 -291 -207 -342q73 -138 73 -307v-22q0 -158 -62 -285t-174 -195.5t-256 -68.5q-222 0 -357.5 153.5t-135.5 404.5v13zM276 529q0 -180 83.5 -289t224.5 -109q139 0 222.5 109.5
t83.5 294.5v16q0 181 -84.5 290t-223.5 109q-138 0 -222 -109t-84 -312z" />
    <glyph glyph-name="glyph23" horiz-adv-x="1424" 
d="M1194 1456v-213q115 11 163.5 79.5t48.5 215.5h159q0 -210 -88.5 -314.5t-282.5 -116.5v-642q-1 -199 -123 -329t-333 -152l-73 -4q-239 0 -381 129t-144 355v992h190v-986q0 -158 87 -245.5t248 -87.5q163 0 249.5 87t86.5 245v987h193z" />
    <glyph glyph-name="glyph24" horiz-adv-x="1267" 
d="M1295 1168q0 -180 -73.5 -253.5t-233.5 -77.5v-837h-176l-4 107q-108 -127 -317 -127q-173 0 -263.5 100.5t-91.5 297.5v704h185v-699q0 -246 200 -246q212 0 282 158v787h185v-131q68 2 102 19.5t48.5 53.5t14.5 144h142z" />
    <glyph glyph-name="glyph25" horiz-adv-x="964" 
d="M774 1262v-10h-153l-150 170l-149 -170h-153v12l246 272h112z" />
    <glyph glyph-name="glyph26" horiz-adv-x="874" 
d="M728 1495q0 -121 -82.5 -194.5t-216.5 -73.5t-217 74t-83 194h151q0 -70 38 -109.5t111 -39.5q70 0 109.5 39t39.5 110h150z" />
    <glyph glyph-name="glyph27" horiz-adv-x="966" 
d="M830 1500q0 -108 -61.5 -175t-153.5 -67q-41 0 -71 10t-78.5 41t-70 37.5t-49.5 6.5q-41 0 -70 -31.5t-29 -80.5l-124 7q0 107 60.5 177t153.5 70q35 0 63 -10t76 -39t73.5 -38t56.5 -9q43 0 71.5 34t28.5 79z" />
    <glyph glyph-name="glyph28" horiz-adv-x="0" 
d="M-652 1241l-1 153q75 5 110 20t35 54t-45.5 58.5t-120.5 19.5l7 106q149 0 226 -51.5t77 -136.5q0 -61 -39 -101t-116 -51l-1 -71h-132z" />
    <glyph glyph-name="glyph29" horiz-adv-x="0" 
d="M-712 -245q0 45 27.5 76t81.5 31t82 -31t28 -76t-28 -75t-82 -30t-81.5 30t-27.5 75z" />
    <glyph glyph-name="glyph30" horiz-adv-x="918" 
d="M779 651h-636v151h636v-151z" />
    <glyph glyph-name="glyph31" horiz-adv-x="932" 
d="M736 1456q0 -95 -84 -152t-219 -57q-136 0 -220 57t-84 152h152q0 -55 39.5 -85.5t112.5 -30.5q71 0 110.5 31.5t39.5 84.5h153zM237 1674h154l112 -198h-101z" />
    <glyph glyph-name="glyph32" horiz-adv-x="1007" 
d="M402 1512h152l290 -263h-197l-169 159l-170 -159h-198zM912 1685h200l-201 -259h-141z" />
    <glyph glyph-name="glyph33" horiz-adv-x="1011" 
d="M838 1231h-197l-170 158l-170 -158h-196l290 262h152zM178 1408h-140l-200 258h199z" />
    <glyph glyph-name="glyph34" horiz-adv-x="1038" 
d="M838 1252h-170l-197 186l-197 -186h-169l272 262h188zM755 1390l-1 131q65 4 94.5 17t29.5 46q0 67 -141 67l5 92q128 0 195 -44t67 -117q0 -59 -37 -92t-97 -40l-1 -60h-114z" />
    <glyph glyph-name="glyph35" horiz-adv-x="1012" 
d="M838 1252h-170l-197 158l-197 -158h-169l301 244h131zM732 1725q0 -62 -48 -109t-113 -47q-54 0 -109 35.5t-95 35.5q-29 0 -56 -23t-27 -52l-77 19q0 63 48 112t112 49q42 0 104 -35t100 -35q31 0 57 22.5t26 50.5z" />
    <glyph glyph-name="glyph36" horiz-adv-x="927" 
d="M736 1456q0 -95 -84 -152t-219 -57q-136 0 -220 57t-84 152h152q0 -55 39.5 -85.5t112.5 -30.5q71 0 110.5 31.5t39.5 84.5h153zM487 1674h153l-164 -198h-102z" />
    <glyph glyph-name="glyph37" horiz-adv-x="926" 
d="M714 1456q0 -94 -80.5 -151t-211.5 -57q-132 0 -212.5 57.5t-80.5 150.5h146q0 -53 37 -84t110 -31q69 0 107 30.5t38 84.5h147zM366 1473l-1 124q74 4 107 16t33 41q0 59 -160 59l7 82q144 0 218 -39t74 -105q0 -50 -40.5 -79.5t-108.5 -36.5l-1 -62h-128z" />
    <glyph glyph-name="glyph38" horiz-adv-x="932" 
d="M722 1454q0 -95 -80.5 -154t-214.5 -59q-135 0 -215.5 59t-80.5 154h150q0 -54 37 -86t109 -32q71 0 108 32t37 86h150zM713 1720q0 -74 -48 -126.5t-118 -52.5q-58 0 -117.5 37.5t-103.5 37.5q-34 0 -58 -25.5t-24 -63.5l-83 21q0 75 48 128.5t117 53.5
q48 0 112.5 -37.5t108.5 -37.5q35 0 59 25.5t24 63.5z" />
    </font>
</defs>
</svg>
